Sooda!
 閲覧数:346
Error # 1
----------
Date & Time: 2016/05/02 / 20:23:40
ExitCode: 1
Input #0, mov,mp4,m4a,3gp,3g2,mj2, from 'C:\Users\縺ソ繧薙↑\Desktop\maikura.mp4':
Metadata:
major_brand : mp42
minor_version : 0
compatible_brands: mp42mp41isomM4A
creation_time : 2016-05-01 07:43:04
encoder : Nero AAC codec / 1.5.4.0
Duration: 00:47:44.46, start: 0.000000, bitrate: 1130 kb/s
Stream #0:0(und): Video: h264 (High) (avc1 / 0x31637661), yuv420p(tv, bt709), 1920x1080, 1000 kb/s, 30 fps, 30 tbr, 30 tbn, 60 tbc (default)
Metadata:
creation_time : 2016-05-01 07:43:04
handler_name : L-SMASH Video Media Handler
encoder : AVC Coding
Stream #0:1(und): Audio: aac (mp4a / 0x6134706D), 44100 Hz, stereo, fltp, 126 kb/s (default)
Metadata:
creation_time : 2016-05-01 07:43:04
handler_name : L-SMASH iTunes Metadata Handler
File for preset 'C:\Users\縺ソ繧薙↑\Desktop\Pazera_Free_MP4_to_AVI_Converter_PORTABLE\data\x264_one_pass.ffpreset' not found

---------------------------------------------------------------------

これってどういう意味ですかね?
助けてください!お願いします!

質問者:大樹
質問日時:2016-05-02 20:26:46
カテゴリ:インターネット・パソコン>技術・プログラミング


↓↓現在集まっている回答 1〜1件/1件中
何をしていてどうなったかなどの情報を書かずに「助けてください...詳細

回答者:違うソフト探した方が早いかもね
回答日時:2016-05-03 04:42:05

この回答の満足度 ★☆☆☆☆
 
この質問を友達に教える
→ヘルプ
ほしい情報が見つからないときは
新しい質問をする

↑このページのトップへ
TOP マイページ ヘルプ